<svg xmlns="http://www.w3.org/2000/svg">
<defs>
<font
   id="EmbeddedFont_1"
   horiz-adv-x="2048"
   horiz-origin-x="0"
   horiz-origin-y="0"
   vert-origin-x="512"
   vert-origin-y="768"
   vert-adv-y="1024">
   <font-face
   font-family="Liberation Sans embedded"
   units-per-em="2048"
   font-weight="normal"
   font-style="normal"
   ascent="1852"
   descent="423"
   id="font-face10" />
   <missing-glyph
   horiz-adv-x="2048"
   d="M 0,0 L 2047,0 2047,2047 0,2047 0,0 Z"
   id="missing-glyph12" />
   <glyph
   unicode="😕"
   horiz-adv-x="1721"
   d="M 1794,582 C 1794,346 1710,144 1543,-23 1376,-190 1174,-274 938,-274 702,-274 500,-190 333,-23 166,144 82,346 82,582 82,818 166,1020 333,1187 500,1354 702,1438 938,1438 1174,1438 1376,1354 1543,1187 1710,1020 1794,818 1794,582 Z M 1694,582 C 1694,791 1620,969 1473,1117 1325,1264 1147,1338 938,1338 729,1338 551,1264 404,1117 256,969 182,791 182,582 182,373 256,195 404,48 551,-100 729,-174 938,-174 1147,-174 1325,-100 1473,48 1620,195 1694,373 1694,582 Z M 1362,870 C 1362,826 1347,789 1316,758 1285,727 1247,711 1203,711 1159,711 1122,727 1091,758 1060,789 1044,826 1044,870 1044,914 1060,952 1091,983 1122,1014 1159,1029 1203,1029 1247,1029 1285,1014 1316,983 1347,952 1362,914 1362,870 Z M 832,870 C 832,826 817,789 786,758 755,727 717,711 673,711 629,711 592,727 561,758 530,789 514,826 514,870 514,914 530,952 561,983 592,1014 629,1029 673,1029 717,1029 755,1014 786,983 817,952 832,914 832,870 Z M 1365,372 L 630,-54 C 627,-50 607,-21 570,34 L 1311,460 C 1323,441 1341,411 1365,372 Z"
   id="glyph14" />
  </font>
 </defs><defs
   class="EmbeddedBulletChars"
   id="defs166">
  <g
   id="bullet-char-template-57356"
   transform="matrix(4.8828125e-4,0,0,-4.8828125e-4,0,0)">
   <path
   d="M 580,1141 1163,571 580,0 -4,571 Z"
   id="path136" />
  </g>
  <g
   id="bullet-char-template-57354"
   transform="matrix(4.8828125e-4,0,0,-4.8828125e-4,0,0)">
   <path
   d="M 8,1128 H 1137 V 0 H 8 Z"
   id="path139" />
  </g>
  <g
   id="bullet-char-template-10146"
   transform="matrix(4.8828125e-4,0,0,-4.8828125e-4,0,0)">
   <path
   d="M 174,0 602,739 174,1481 1456,739 Z M 1358,739 309,1346 659,739 Z"
   id="path142" />
  </g>
  <g
   id="bullet-char-template-10132"
   transform="matrix(4.8828125e-4,0,0,-4.8828125e-4,0,0)">
   <path
   d="M 2015,739 1276,0 H 717 l 543,543 H 174 v 393 h 1086 l -543,545 h 557 z"
   id="path145" />
  </g>
  <g
   id="bullet-char-template-10007"
   transform="matrix(4.8828125e-4,0,0,-4.8828125e-4,0,0)">
   <path
   d="m 0,-2 c -7,16 -16,29 -25,39 l 381,530 c -94,256 -141,385 -141,387 0,25 13,38 40,38 9,0 21,-2 34,-5 21,4 42,12 65,25 l 27,-13 111,-251 280,301 64,-25 24,25 c 21,-10 41,-24 62,-43 C 886,937 835,863 770,784 769,783 710,716 594,584 L 774,223 c 0,-27 -21,-55 -63,-84 l 16,-20 C 717,90 699,76 672,76 641,76 570,178 457,381 L 164,-76 c -22,-34 -53,-51 -92,-51 -42,0 -63,17 -64,51 -7,9 -10,24 -10,44 0,9 1,19 2,30 z"
   id="path148" />
  </g>
  <g
   id="bullet-char-template-10004"
   transform="matrix(4.8828125e-4,0,0,-4.8828125e-4,0,0)">
   <path
   d="M 285,-33 C 182,-33 111,30 74,156 52,228 41,333 41,471 c 0,78 14,145 41,201 34,71 87,106 158,106 53,0 88,-31 106,-94 l 23,-176 c 8,-64 28,-97 59,-98 l 735,706 c 11,11 33,17 66,17 42,0 63,-15 63,-46 V 965 c 0,-36 -10,-64 -30,-84 L 442,47 C 390,-6 338,-33 285,-33 Z"
   id="path151" />
  </g>
  <g
   id="bullet-char-template-9679"
   transform="matrix(4.8828125e-4,0,0,-4.8828125e-4,0,0)">
   <path
   d="M 813,0 C 632,0 489,54 383,161 276,268 223,411 223,592 c 0,181 53,324 160,431 106,107 249,161 430,161 179,0 323,-54 432,-161 108,-107 162,-251 162,-431 0,-180 -54,-324 -162,-431 C 1136,54 992,0 813,0 Z"
   id="path154" />
  </g>
  <g
   id="bullet-char-template-8226"
   transform="matrix(4.8828125e-4,0,0,-4.8828125e-4,0,0)">
   <path
   d="m 346,457 c -73,0 -137,26 -191,78 -54,51 -81,114 -81,188 0,73 27,136 81,188 54,52 118,78 191,78 73,0 134,-26 185,-79 51,-51 77,-114 77,-187 0,-75 -25,-137 -76,-188 -50,-52 -112,-78 -186,-78 z"
   id="path157" />
  </g>
  <g
   id="bullet-char-template-8211"
   transform="matrix(4.8828125e-4,0,0,-4.8828125e-4,0,0)">
   <path
   d="M -4,459 H 1135 V 606 H -4 Z"
   id="path160" />
  </g>
  <g
   id="bullet-char-template-61548"
   transform="matrix(4.8828125e-4,0,0,-4.8828125e-4,0,0)">
   <path
   d="m 173,740 c 0,163 58,303 173,419 116,115 255,173 419,173 163,0 302,-58 418,-173 116,-116 174,-256 174,-419 0,-163 -58,-303 -174,-418 C 1067,206 928,148 765,148 601,148 462,206 346,322 231,437 173,577 173,740 Z"
   id="path163" />
  </g>
 </defs>
 <defs
   id="defs62">
  <font
   id="EmbeddedFont_2"
   horiz-adv-x="2048"
   horiz-origin-x="0"
   horiz-origin-y="0"
   vert-origin-x="512"
   vert-origin-y="768"
   vert-adv-y="1024">
   <font-face
   font-family="Nunito ExtraLight embedded"
   units-per-em="2048"
   font-weight="normal"
   font-style="normal"
   ascent="2064"
   descent="714"
   id="font-face19" />
   <missing-glyph
   horiz-adv-x="2048"
   d="M 0,0 L 2047,0 2047,2047 0,2047 0,0 Z"
   id="missing-glyph21" />
   <glyph
   unicode="’"
   horiz-adv-x="239"
   d="M 254,1041 C 240,1023 226,1013 211,1011 196,1009 183,1012 172,1019 161,1027 155,1038 155,1053 154,1068 160,1084 174,1102 196,1131 211,1160 219,1189 227,1218 231,1245 231,1268 L 240,1227 C 204,1227 176,1238 155,1259 133,1280 123,1307 123,1340 123,1374 133,1401 153,1422 172,1442 199,1452 231,1452 267,1452 295,1440 315,1416 336,1393 346,1358 346,1313 346,1284 343,1255 338,1224 332,1193 323,1162 309,1131 296,1099 277,1069 254,1041 Z"
   id="glyph23" />
   <glyph
   unicode="w"
   horiz-adv-x="1588"
   d="M 500,-14 C 477,-14 456,-8 438,4 421,17 406,37 395,64 L 90,893 C 82,916 80,937 83,955 86,972 95,986 109,996 122,1005 139,1010 160,1010 180,1010 197,1005 210,996 223,986 233,968 242,942 L 528,124 479,124 774,942 C 784,967 796,984 810,995 824,1005 843,1010 866,1010 888,1010 907,1005 922,994 937,983 948,966 956,942 L 1245,124 1198,124 1489,947 C 1498,971 1510,988 1524,997 1537,1006 1554,1010 1573,1010 1595,1010 1611,1005 1623,994 1635,983 1641,968 1643,951 1644,933 1640,914 1632,893 L 1327,64 C 1318,38 1304,18 1285,5 1267,-8 1246,-14 1223,-14 1199,-14 1179,-8 1161,5 1143,18 1130,38 1120,64 L 817,896 905,896 604,64 C 595,38 581,18 563,5 545,-8 524,-14 500,-14 Z"
   id="glyph25" />
   <glyph
   unicode="u"
   horiz-adv-x="874"
   d="M 508,-18 C 427,-18 361,-3 308,26 256,55 216,99 189,158 163,217 150,290 150,377 L 150,927 C 150,955 157,976 171,990 185,1004 205,1011 231,1011 259,1011 280,1004 294,990 308,976 315,955 315,927 L 315,379 C 315,292 333,227 370,184 406,141 463,119 541,119 625,119 694,148 748,205 801,263 827,338 827,431 L 827,926 C 827,955 835,976 849,990 863,1003 884,1010 911,1010 937,1010 957,1003 972,990 986,976 993,955 993,926 L 993,72 C 993,15 967,-14 913,-14 887,-14 867,-6 853,9 839,24 831,45 831,72 L 831,259 858,230 C 831,149 786,88 724,46 662,3 590,-18 508,-18 Z"
   id="glyph27" />
   <glyph
   unicode="t"
   horiz-adv-x="768"
   d="M 555,-18 C 477,-18 412,-4 359,24 307,52 268,93 242,147 216,201 203,267 203,345 L 203,867 66,867 C 42,867 25,873 12,884 0,896 -6,912 -6,933 -6,953 0,969 12,980 25,991 42,996 66,996 L 203,996 203,1232 C 203,1259 210,1280 225,1294 240,1308 261,1316 287,1316 313,1316 333,1308 347,1294 361,1280 369,1259 369,1232 L 369,996 627,996 C 650,996 668,991 680,980 692,969 698,953 698,933 698,912 692,896 680,884 668,873 650,867 627,867 L 369,867 369,361 C 369,283 385,224 418,184 451,143 504,123 578,123 603,123 626,126 644,132 663,137 678,140 690,140 702,141 713,137 721,127 729,118 733,102 733,78 733,62 730,47 724,33 718,20 707,10 692,5 676,-1 654,-6 628,-11 601,-16 577,-18 555,-18 Z"
   id="glyph29" />
   <glyph
   unicode="r"
   horiz-adv-x="610"
   d="M 240,-14 C 212,-14 191,-6 177,9 163,24 156,45 156,72 L 156,926 C 156,954 162,974 176,989 190,1003 210,1010 236,1010 261,1010 282,1003 296,989 310,974 317,954 317,926 L 317,760 297,760 C 319,841 360,903 422,947 483,990 559,1014 649,1016 670,1018 686,1013 698,1003 711,993 717,975 719,951 720,928 715,909 702,896 690,882 671,874 645,871 L 612,867 C 520,859 448,829 398,778 349,727 324,657 324,568 L 324,72 C 324,45 316,24 302,9 288,-6 267,-14 240,-14 Z"
   id="glyph31" />
   <glyph
   unicode="o"
   horiz-adv-x="980"
   d="M 569,-18 C 472,-18 388,3 317,45 246,88 191,148 153,225 114,302 94,393 94,498 94,577 105,649 127,712 149,776 181,830 223,875 266,920 316,954 374,978 432,1002 497,1014 569,1014 666,1014 750,993 821,951 892,908 947,849 986,771 1025,694 1044,603 1044,498 1044,419 1034,348 1012,285 990,222 958,168 915,122 873,77 823,42 765,18 707,-6 642,-18 569,-18 Z M 569,115 C 631,115 685,130 731,160 778,190 813,234 839,291 864,349 877,418 877,498 877,622 849,717 794,783 738,848 664,881 569,881 507,881 452,866 407,837 361,808 325,765 300,708 275,651 262,581 262,498 262,375 290,281 346,214 402,148 477,115 569,115 Z"
   id="glyph33" />
   <glyph
   unicode="n"
   horiz-adv-x="901"
   d="M 238,-14 C 210,-14 190,-6 176,9 162,24 156,45 156,72 L 156,926 C 156,954 162,974 176,989 190,1003 210,1010 236,1010 261,1010 282,1003 296,989 310,974 317,954 317,926 L 317,750 295,775 C 324,854 370,914 435,954 500,994 575,1014 659,1014 739,1014 805,1000 857,971 910,943 949,899 975,841 1001,783 1014,710 1014,621 L 1014,72 C 1014,45 1007,24 992,9 978,-6 958,-14 932,-14 905,-14 884,-6 869,9 855,24 848,45 848,72 L 848,611 C 848,704 830,771 794,814 757,858 700,879 621,879 529,879 456,851 402,794 349,737 322,662 322,568 L 322,72 C 322,15 294,-14 238,-14 Z"
   id="glyph35" />
   <glyph
   unicode="m"
   horiz-adv-x="1483"
   d="M 242,-14 C 214,-14 194,-6 180,9 167,24 160,45 160,72 L 160,926 C 160,954 167,974 180,989 194,1003 214,1010 240,1010 266,1010 286,1003 300,989 314,974 322,954 322,926 L 322,746 299,775 C 325,851 367,910 425,952 483,993 552,1014 633,1014 717,1014 786,994 839,954 891,914 926,851 944,766 L 913,766 C 938,843 982,903 1046,948 1109,992 1183,1014 1268,1014 1343,1014 1405,1000 1453,971 1502,943 1538,899 1563,841 1587,783 1599,710 1599,621 L 1599,72 C 1599,45 1592,24 1578,9 1564,-6 1543,-14 1516,-14 1490,-14 1469,-6 1455,9 1441,24 1434,45 1434,72 L 1434,613 C 1434,704 1418,771 1386,814 1355,858 1302,879 1227,879 1145,879 1080,851 1033,794 986,737 963,661 963,564 L 963,72 C 963,45 955,24 941,9 927,-6 906,-14 879,-14 853,-14 833,-6 818,9 804,24 797,45 797,72 L 797,613 C 797,704 781,771 749,814 716,858 664,879 590,879 508,879 443,851 396,794 349,737 326,661 326,564 L 326,72 C 326,15 298,-14 242,-14 Z"
   id="glyph37" />
   <glyph
   unicode="k"
   horiz-adv-x="848"
   d="M 238,-14 C 210,-14 190,-6 176,9 162,24 156,45 156,72 L 156,1375 C 156,1402 162,1423 176,1437 190,1452 210,1459 238,1459 264,1459 284,1452 299,1437 314,1423 322,1402 322,1375 L 322,553 326,553 745,955 C 765,973 781,986 796,996 810,1005 829,1010 854,1010 876,1010 893,1004 905,993 918,981 923,967 923,950 922,933 913,915 897,896 L 451,471 451,562 936,105 C 955,86 965,67 965,50 965,32 958,17 945,4 932,-8 915,-14 895,-14 870,-14 851,-9 836,1 821,12 802,27 780,47 L 326,467 322,467 322,72 C 322,15 294,-14 238,-14 Z"
   id="glyph39" />
   <glyph
   unicode="i"
   horiz-adv-x="265"
   d="M 238,-10 C 210,-10 190,-2 176,14 162,29 156,51 156,80 L 156,918 C 156,947 162,969 176,984 190,999 210,1006 238,1006 264,1006 284,999 299,984 314,969 322,947 322,918 L 322,80 C 322,51 314,29 300,14 286,-2 265,-10 238,-10 Z M 238,1235 C 203,1235 177,1244 158,1263 139,1281 129,1306 129,1338 129,1370 139,1395 158,1412 177,1429 203,1438 238,1438 273,1438 300,1429 318,1412 337,1395 346,1370 346,1338 346,1306 337,1281 318,1263 300,1244 273,1235 238,1235 Z"
   id="glyph41" />
   <glyph
   unicode="h"
   horiz-adv-x="901"
   d="M 238,-14 C 210,-14 190,-6 176,9 162,24 156,45 156,72 L 156,1375 C 156,1402 162,1423 176,1437 190,1452 210,1459 238,1459 264,1459 284,1452 299,1437 314,1423 322,1402 322,1375 L 322,775 295,775 C 324,854 370,914 435,954 500,994 575,1014 659,1014 739,1014 805,1000 857,971 910,943 949,899 975,841 1001,783 1014,710 1014,621 L 1014,72 C 1014,45 1007,24 992,9 978,-6 958,-14 932,-14 905,-14 884,-6 869,9 855,24 848,45 848,72 L 848,611 C 848,704 830,771 794,814 757,858 700,879 621,879 529,879 456,851 402,794 349,737 322,662 322,568 L 322,72 C 322,15 294,-14 238,-14 Z"
   id="glyph43" />
   <glyph
   unicode="f"
   horiz-adv-x="715"
   d="M 291,-14 C 265,-14 245,-6 230,9 216,24 209,45 209,72 L 209,867 78,867 C 56,867 39,873 26,884 13,896 6,912 6,933 6,953 13,969 26,980 39,991 56,996 78,996 L 254,996 209,953 209,1031 C 209,1161 241,1260 304,1328 368,1396 461,1436 584,1447 L 643,1453 C 662,1454 678,1451 689,1443 701,1434 708,1424 712,1412 715,1400 715,1387 713,1374 710,1361 704,1350 694,1340 685,1331 673,1325 659,1324 L 612,1320 C 529,1313 469,1288 431,1244 394,1200 375,1136 375,1051 L 375,965 350,996 596,996 C 619,996 637,991 649,980 662,969 668,953 668,933 668,912 662,896 649,884 637,873 619,867 596,867 L 375,867 375,72 C 375,15 347,-14 291,-14 Z"
   id="glyph45" />
   <glyph
   unicode="e"
   horiz-adv-x="927"
   d="M 604,-18 C 499,-18 409,3 333,44 257,86 198,145 157,222 115,298 94,389 94,496 94,600 115,690 156,767 197,844 253,905 325,948 396,992 479,1014 573,1014 640,1014 700,1003 754,980 807,958 852,925 890,883 927,841 956,790 976,730 996,669 1006,602 1006,527 1006,505 999,489 987,479 975,469 957,463 934,463 L 221,463 221,572 895,572 862,545 C 862,619 851,681 829,733 808,784 776,823 734,850 693,877 640,891 578,891 508,891 449,875 400,843 352,811 315,767 291,710 266,653 254,587 254,512 L 254,500 C 254,374 284,279 345,213 406,148 492,115 604,115 651,115 697,121 742,133 788,145 833,165 877,193 896,205 913,211 929,211 944,211 957,207 967,198 976,189 983,178 986,165 990,152 988,138 982,123 976,108 964,95 946,84 901,52 848,26 786,9 725,-9 664,-18 604,-18 Z"
   id="glyph47" />
   <glyph
   unicode="d"
   horiz-adv-x="980"
   d="M 535,-18 C 446,-18 368,3 302,45 236,88 185,148 148,225 112,302 94,393 94,498 94,605 112,696 148,774 185,851 236,910 302,952 368,993 446,1014 535,1014 625,1014 702,992 766,947 830,902 873,841 895,764 L 872,764 872,1375 C 872,1402 880,1423 894,1437 908,1452 929,1459 956,1459 982,1459 1003,1452 1017,1437 1031,1423 1038,1402 1038,1375 L 1038,72 C 1038,45 1032,24 1018,9 1004,-6 984,-14 956,-14 930,-14 910,-6 896,9 882,24 875,45 875,72 L 875,267 897,238 C 875,160 832,98 767,52 702,5 625,-18 535,-18 Z M 569,115 C 631,115 685,130 731,160 778,190 813,234 839,291 864,349 877,418 877,498 877,622 849,717 794,783 738,848 664,881 569,881 507,881 452,866 407,837 361,808 325,765 300,708 275,651 262,581 262,498 262,375 290,281 346,214 402,148 477,115 569,115 Z"
   id="glyph49" />
   <glyph
   unicode="c"
   horiz-adv-x="848"
   d="M 578,-18 C 478,-18 392,4 319,48 247,91 191,152 153,231 114,309 94,400 94,504 94,583 105,654 127,717 149,780 181,834 223,878 266,922 316,956 376,979 435,1003 502,1014 578,1014 627,1014 678,1007 731,992 784,977 833,951 877,914 890,904 899,893 903,879 907,865 907,852 903,839 899,826 892,815 883,806 873,797 861,792 847,791 833,790 818,794 803,805 767,833 731,852 694,863 657,874 622,879 588,879 535,879 488,870 449,853 409,836 375,812 348,781 321,749 300,710 286,664 271,618 264,564 264,502 264,383 292,290 348,221 404,152 484,117 588,117 622,117 657,123 693,134 729,145 766,164 803,191 818,202 832,207 846,205 859,204 871,199 881,190 890,181 897,170 900,156 904,142 903,129 899,116 895,103 886,92 872,82 829,47 781,21 729,6 677,-10 627,-18 578,-18 Z"
   id="glyph51" />
   <glyph
   unicode="a"
   horiz-adv-x="848"
   d="M 469,-18 C 401,-18 340,-5 286,22 232,49 189,85 158,132 126,178 111,230 111,287 111,361 129,419 167,461 204,504 267,534 353,551 440,569 558,578 709,578 L 801,578 801,469 711,469 C 600,469 513,464 450,454 386,444 342,426 316,402 291,377 279,342 279,297 279,241 298,196 337,160 376,125 429,107 496,107 550,107 598,120 640,146 682,172 714,207 738,252 762,297 774,349 774,408 L 774,641 C 774,726 757,787 723,825 689,862 633,881 555,881 507,881 459,875 412,863 364,850 313,830 260,803 241,794 225,791 211,794 197,797 186,805 178,815 170,826 165,839 164,853 162,868 166,882 173,895 181,909 193,920 209,928 269,958 328,980 387,994 446,1007 502,1014 555,1014 641,1014 712,1000 768,972 824,944 866,902 893,845 920,789 934,716 934,627 L 934,72 C 934,45 927,24 914,9 901,-6 883,-14 858,-14 832,-14 812,-6 799,9 785,24 778,45 778,72 L 778,232 797,232 C 786,180 765,136 734,99 703,62 666,33 621,13 575,-8 525,-18 469,-18 Z"
   id="glyph53" />
   <glyph
   unicode="I"
   horiz-adv-x="212"
   d="M 262,-14 C 235,-14 214,-6 200,10 185,25 178,47 178,74 L 178,1371 C 178,1400 185,1421 200,1436 214,1451 235,1459 262,1459 289,1459 310,1451 325,1436 339,1421 346,1400 346,1371 L 346,74 C 346,47 339,25 326,10 312,-6 291,-14 262,-14 Z"
   id="glyph55" />
   <glyph
   unicode="!"
   horiz-adv-x="265"
   d="M 236,367 C 219,367 206,373 196,384 185,394 180,411 178,433 L 137,1350 C 136,1383 144,1410 161,1429 178,1449 203,1459 236,1459 267,1459 291,1449 307,1429 324,1410 331,1383 330,1350 L 289,433 C 289,411 284,394 274,384 265,373 252,367 236,367 Z M 236,-8 C 201,-8 174,3 154,24 133,45 123,72 123,105 123,137 133,164 154,186 174,207 201,217 236,217 270,217 297,207 316,186 336,164 346,137 346,105 346,72 336,45 316,24 297,3 270,-8 236,-8 Z"
   id="glyph57" />
   <glyph
   unicode=" "
   horiz-adv-x="529"
   id="glyph59" />
  </font>
 </defs>
 <defs
   id="defs95">
  <font
   id="EmbeddedFont_3"
   horiz-adv-x="2048"
   horiz-origin-x="0"
   horiz-origin-y="0"
   vert-origin-x="512"
   vert-origin-y="768"
   vert-adv-y="1024">
   <font-face
   font-family="Nunito ExtraLight embedded"
   units-per-em="2048"
   font-weight="bold"
   font-style="normal"
   ascent="2064"
   descent="714"
   id="font-face64" />
   <missing-glyph
   horiz-adv-x="2048"
   d="M 0,0 L 2047,0 2047,2047 0,2047 0,0 Z"
   id="missing-glyph66" />
   <glyph
   unicode="…"
   horiz-adv-x="1351"
   d="M 766,-10 C 720,-10 682,4 654,33 626,62 612,99 612,144 612,187 626,223 654,251 682,279 720,293 766,293 814,293 851,279 878,251 904,223 918,187 918,144 918,99 904,62 878,33 851,4 814,-10 766,-10 Z M 1274,-10 C 1227,-10 1190,4 1162,33 1134,62 1120,99 1120,144 1120,187 1134,223 1162,251 1190,279 1227,293 1274,293 1322,293 1359,279 1385,251 1412,223 1425,187 1425,144 1425,99 1412,62 1385,33 1359,4 1322,-10 1274,-10 Z M 256,-10 C 210,-10 172,4 144,33 116,62 102,99 102,144 102,187 116,223 144,251 172,279 210,293 256,293 304,293 341,279 368,251 394,223 408,187 408,144 408,99 394,62 368,33 341,4 304,-10 256,-10 Z"
   id="glyph68" />
   <glyph
   unicode="u"
   horiz-adv-x="953"
   d="M 496,-20 C 412,-20 343,-5 289,26 234,57 194,103 167,164 140,226 127,302 127,394 L 127,889 C 127,933 138,966 160,987 182,1008 213,1019 254,1019 295,1019 327,1008 349,987 372,966 383,933 383,889 L 383,390 C 383,319 397,266 426,232 455,198 500,181 563,181 631,181 687,204 731,251 775,298 797,361 797,439 L 797,889 C 797,933 808,965 829,987 851,1008 883,1018 924,1018 965,1018 996,1008 1019,987 1041,965 1053,933 1053,889 L 1053,115 C 1053,28 1011,-16 928,-16 888,-16 857,-5 836,18 814,40 803,73 803,115 L 803,271 831,209 C 803,136 759,79 701,39 643,0 575,-20 496,-20 Z"
   id="glyph70" />
   <glyph
   unicode="t"
   horiz-adv-x="847"
   d="M 592,-20 C 503,-20 429,-5 370,25 310,55 266,99 238,157 209,215 195,287 195,373 L 195,809 88,809 C 55,809 30,818 12,835 -5,852 -14,876 -14,906 -14,937 -5,961 12,977 30,994 55,1002 88,1002 L 195,1002 195,1188 C 195,1231 206,1263 228,1285 251,1307 283,1318 324,1318 365,1318 396,1307 418,1285 440,1263 451,1231 451,1188 L 451,1002 668,1002 C 700,1002 726,994 743,977 761,961 770,937 770,906 770,876 761,852 743,835 726,818 700,809 668,809 L 451,809 451,388 C 451,322 465,273 494,240 522,207 569,191 633,191 656,191 677,193 694,197 712,201 728,204 741,205 758,207 771,202 782,190 793,178 799,155 799,119 799,92 794,68 785,47 777,25 760,11 737,3 720,-3 696,-8 668,-13 639,-18 614,-20 592,-20 Z"
   id="glyph72" />
   <glyph
   unicode="o"
   horiz-adv-x="1059"
   d="M 590,-20 C 486,-20 396,1 319,44 243,86 184,146 141,225 99,303 78,396 78,502 78,583 90,655 114,718 138,782 172,837 217,882 262,928 316,963 379,987 442,1011 512,1023 590,1023 694,1023 784,1001 860,959 937,917 996,857 1038,779 1081,701 1102,609 1102,502 1102,422 1090,349 1066,285 1042,221 1008,166 963,120 918,75 864,40 801,16 738,-8 668,-20 590,-20 Z M 590,175 C 640,175 685,187 723,211 761,236 791,273 812,321 833,370 844,430 844,502 844,612 821,693 774,747 728,801 666,828 590,828 539,828 495,816 457,792 418,768 389,732 368,684 346,635 336,575 336,502 336,394 359,313 406,258 452,202 513,175 590,175 Z"
   id="glyph74" />
   <glyph
   unicode="n"
   horiz-adv-x="954"
   d="M 260,-16 C 219,-16 188,-5 166,18 144,40 133,73 133,115 L 133,889 C 133,932 144,964 166,986 188,1007 218,1018 258,1018 298,1018 328,1007 350,986 372,964 383,932 383,889 L 383,750 360,802 C 390,874 437,929 501,966 564,1004 636,1023 717,1023 797,1023 864,1008 915,978 967,948 1006,902 1032,841 1058,781 1071,704 1071,611 L 1071,115 C 1071,73 1060,40 1038,18 1016,-5 985,-16 944,-16 903,-16 871,-5 849,18 826,40 815,73 815,115 L 815,599 C 815,677 800,733 771,769 742,804 696,822 635,822 560,822 500,798 456,751 411,704 389,642 389,564 L 389,115 C 389,28 346,-16 260,-16 Z"
   id="glyph76" />
   <glyph
   unicode="e"
   horiz-adv-x="1006"
   d="M 627,-20 C 513,-20 416,1 334,43 252,86 189,146 144,224 100,301 78,394 78,500 78,604 99,695 142,772 185,850 245,911 321,956 396,1000 483,1022 580,1022 651,1022 714,1011 771,987 828,964 876,931 916,887 957,843 987,791 1009,728 1030,666 1040,596 1040,519 1040,494 1032,475 1015,462 998,449 973,443 942,443 L 285,443 285,590 860,590 827,560 C 827,622 818,675 800,717 781,759 755,792 720,814 685,837 642,848 590,848 532,848 484,835 443,808 403,781 372,744 351,696 330,647 319,589 319,523 L 319,508 C 319,396 346,313 398,257 451,202 528,175 631,175 666,175 706,179 751,188 795,197 837,212 877,234 905,250 930,258 952,255 974,253 992,246 1005,232 1018,218 1025,202 1028,182 1031,162 1027,142 1017,121 1007,101 989,83 965,68 917,38 862,16 800,2 738,-13 680,-20 627,-20 Z"
   id="glyph78" />
   <glyph
   unicode="d"
   horiz-adv-x="1059"
   d="M 518,-21 C 431,-21 354,1 288,43 222,85 170,146 133,224 96,303 78,395 78,502 78,609 96,702 133,779 170,856 222,916 288,958 354,1000 431,1022 518,1022 601,1022 674,1001 736,960 798,919 840,865 862,798 L 840,798 840,1331 C 840,1373 851,1405 872,1427 894,1449 926,1460 967,1460 1008,1460 1039,1449 1062,1427 1084,1405 1096,1373 1096,1331 L 1096,114 C 1096,72 1085,40 1063,17 1041,-5 1010,-17 969,-17 928,-17 896,-5 875,17 853,40 842,72 842,114 L 842,274 864,213 C 844,142 802,85 739,43 677,1 603,-21 518,-21 Z M 590,174 C 640,174 685,186 723,211 761,235 791,272 812,320 833,369 844,429 844,502 844,611 821,692 774,746 728,800 666,827 590,827 539,827 495,815 457,791 418,767 389,731 368,683 346,634 336,574 336,502 336,394 359,312 406,257 452,202 513,174 590,174 Z"
   id="glyph80" />
   <glyph
   unicode="b"
   horiz-adv-x="1033"
   d="M 711,-21 C 626,-21 552,1 488,43 425,85 383,142 363,213 L 385,264 385,114 C 385,72 374,40 352,17 330,-5 300,-17 260,-17 219,-17 188,-5 166,17 144,40 133,72 133,114 L 133,1331 C 133,1373 144,1405 166,1427 188,1449 219,1460 260,1460 301,1460 333,1449 355,1427 378,1405 389,1373 389,1331 L 389,798 365,798 C 386,865 429,919 492,960 554,1001 627,1022 711,1022 799,1022 877,1000 942,958 1008,916 1059,856 1096,779 1133,702 1151,609 1151,502 1151,395 1133,303 1096,224 1059,146 1007,85 941,43 875,1 798,-21 711,-21 Z M 639,174 C 689,174 734,186 772,211 810,235 840,272 861,320 882,369 893,429 893,502 893,611 870,692 823,746 777,800 715,827 639,827 588,827 544,815 506,791 468,767 438,731 417,683 396,634 385,574 385,502 385,394 408,312 455,257 501,202 563,174 639,174 Z"
   id="glyph82" />
   <glyph
   unicode="a"
   horiz-adv-x="927"
   d="M 463,-20 C 390,-20 326,-6 269,22 213,50 168,88 136,136 104,183 88,237 88,297 88,371 107,430 145,473 184,516 246,547 332,566 418,585 533,594 678,594 L 780,594 780,447 680,447 C 595,447 528,443 477,435 427,427 391,413 370,393 349,373 338,345 338,310 338,265 354,228 385,199 416,170 460,156 516,156 561,156 601,167 636,188 671,209 698,238 719,275 739,312 750,354 750,402 L 750,637 C 750,706 735,755 705,785 674,815 624,830 553,830 513,830 471,825 425,816 379,806 331,790 281,767 255,754 232,751 212,756 192,762 177,773 166,790 155,807 150,826 150,846 150,867 155,887 166,907 177,927 195,941 221,951 284,977 344,995 402,1006 460,1017 513,1023 561,1023 659,1023 740,1008 804,977 867,947 915,902 946,841 978,780 993,702 993,607 L 993,115 C 993,73 983,40 963,18 942,-5 913,-16 875,-16 836,-16 807,-5 785,18 764,40 754,73 754,115 L 754,213 770,213 C 761,166 742,124 714,90 686,55 651,28 608,9 566,-10 517,-20 463,-20 Z"
   id="glyph84" />
   <glyph
   unicode="I"
   horiz-adv-x="292"
   d="M 289,-17 C 246,-17 214,-5 191,19 169,43 158,76 158,119 L 158,1325 C 158,1369 169,1402 191,1425 214,1448 246,1460 289,1460 331,1460 364,1448 386,1425 409,1402 420,1369 420,1325 L 420,119 C 420,76 409,43 387,19 365,-5 332,-17 289,-17 Z"
   id="glyph86" />
   <glyph
   unicode=","
   horiz-adv-x="345"
   d="M 289,-219 C 271,-241 252,-253 232,-257 213,-260 195,-256 180,-246 165,-235 157,-219 156,-199 154,-180 163,-158 182,-135 210,-101 228,-67 238,-33 247,2 252,32 252,60 L 262,-10 C 214,-10 176,4 146,32 117,60 102,97 102,144 102,187 116,223 143,251 171,279 208,293 254,293 302,293 339,277 367,245 394,213 408,167 408,107 408,74 404,40 398,5 392,-29 381,-66 364,-103 346,-141 322,-179 289,-219 Z"
   id="glyph88" />
   <glyph
   unicode="!"
   horiz-adv-x="345"
   d="M 256,415 C 230,415 210,424 196,440 181,456 173,480 170,510 L 109,1292 C 104,1343 115,1383 141,1414 167,1445 205,1460 256,1460 305,1460 342,1445 368,1414 393,1383 403,1343 399,1292 L 338,510 C 337,480 329,456 314,440 300,424 281,415 256,415 Z M 256,-10 C 210,-10 172,4 144,33 116,62 102,98 102,143 102,187 116,223 144,251 172,279 210,293 256,293 304,293 341,279 368,251 394,223 408,187 408,143 408,98 394,62 368,33 341,4 304,-10 256,-10 Z"
   id="glyph90" />
   <glyph
   unicode=" "
   horiz-adv-x="556"
   id="glyph92" />
  </font>
 </defs>
 <defs
   id="defs130">
  <font
   id="EmbeddedFont_4"
   horiz-adv-x="2048"
   horiz-origin-x="0"
   horiz-origin-y="0"
   vert-origin-x="512"
   vert-origin-y="768"
   vert-adv-y="1024">
   <font-face
   font-family="Nunito ExtraLight embedded"
   units-per-em="2048"
   font-weight="bold"
   font-style="italic"
   ascent="2064"
   descent="714"
   id="font-face97" />
   <missing-glyph
   horiz-adv-x="2048"
   d="M 0,0 L 2047,0 2047,2047 0,2047 0,0 Z"
   id="missing-glyph99" />
   <glyph
   unicode="…"
   horiz-adv-x="1351"
   d="M 711,-10 C 664,-10 627,4 599,33 571,62 557,99 557,144 557,187 571,223 599,251 627,279 664,293 711,293 758,293 796,279 822,251 849,223 862,187 862,144 862,99 849,62 822,33 796,4 758,-10 711,-10 Z M 1219,-10 C 1172,-10 1135,4 1107,33 1079,62 1065,99 1065,144 1065,187 1079,223 1107,251 1135,279 1172,293 1219,293 1266,293 1304,279 1330,251 1357,223 1370,187 1370,144 1370,99 1357,62 1330,33 1304,4 1266,-10 1219,-10 Z M 201,-10 C 154,-10 117,4 89,33 61,62 47,99 47,144 47,187 61,223 89,251 117,279 154,293 201,293 249,293 286,279 312,251 339,223 352,187 352,144 352,99 339,62 312,33 286,4 249,-10 201,-10 Z"
   id="glyph101" />
   <glyph
   unicode="w"
   horiz-adv-x="1668"
   d="M 440,-16 C 406,-16 378,-6 354,13 331,32 315,62 305,103 L 131,842 C 123,878 123,909 130,935 138,960 152,981 172,996 193,1011 218,1019 248,1019 281,1019 305,1010 323,993 340,976 352,947 360,906 L 498,234 446,234 821,943 C 836,970 853,989 871,1001 890,1013 913,1019 942,1019 969,1019 992,1011 1011,996 1029,981 1042,957 1049,924 L 1190,234 1149,234 1509,924 C 1528,960 1548,984 1569,998 1589,1012 1617,1019 1651,1019 1683,1019 1709,1011 1726,997 1744,983 1754,964 1755,941 1757,917 1750,891 1735,863 L 1305,80 C 1287,48 1265,23 1240,8 1215,-8 1185,-16 1151,-16 1117,-16 1088,-6 1064,14 1040,33 1023,63 1014,103 L 860,801 977,801 596,84 C 578,50 557,25 531,9 506,-8 476,-16 440,-16 Z"
   id="glyph103" />
   <glyph
   unicode="u"
   horiz-adv-x="1060"
   d="M 412,-20 C 341,-20 280,-5 229,25 179,55 143,102 122,164 101,227 98,307 113,404 L 193,900 C 199,941 214,971 238,990 261,1009 292,1019 332,1019 374,1019 405,1007 425,983 445,959 451,924 444,877 L 371,406 C 360,331 366,275 388,238 411,201 453,183 514,183 591,183 653,208 700,259 748,309 779,378 793,465 L 860,900 C 867,940 882,971 905,990 928,1009 960,1018 999,1018 1043,1018 1075,1006 1094,981 1113,957 1119,921 1112,875 L 991,105 C 979,24 933,-16 852,-16 812,-16 783,-5 764,17 745,39 738,72 743,117 L 764,265 778,209 C 743,134 693,77 630,38 566,-1 494,-20 412,-20 Z"
   id="glyph105" />
   <glyph
   unicode="t"
   horiz-adv-x="822"
   d="M 528,-20 C 440,-20 367,-3 309,30 252,64 212,110 189,168 167,227 162,295 174,373 L 244,809 154,809 C 121,809 95,817 77,831 58,845 49,865 49,891 49,927 61,954 84,973 107,992 139,1002 178,1002 L 274,1002 305,1199 C 312,1238 327,1268 350,1288 373,1308 405,1318 444,1318 488,1318 520,1305 539,1281 558,1256 564,1221 557,1176 L 530,1002 731,1002 C 765,1002 792,996 810,983 828,970 838,949 838,922 838,889 827,862 806,841 785,820 756,809 719,809 L 500,809 432,390 C 421,319 430,268 459,237 487,206 528,191 580,191 604,191 624,193 638,197 652,201 666,203 680,203 699,203 713,198 722,188 731,178 735,159 735,132 735,85 728,53 713,35 698,18 677,5 651,-4 635,-9 615,-13 592,-16 569,-19 548,-20 528,-20 Z"
   id="glyph107" />
   <glyph
   unicode="o"
   horiz-adv-x="1059"
   d="M 547,-20 C 449,-20 364,-2 294,35 224,72 170,125 132,193 95,261 76,341 76,433 76,523 90,604 119,676 147,749 187,811 239,863 290,915 349,954 416,982 483,1009 555,1023 633,1023 731,1023 815,1004 886,967 956,930 1010,878 1048,811 1085,743 1104,663 1104,570 1104,480 1090,399 1061,326 1032,254 992,192 941,140 890,88 831,48 764,21 697,-6 625,-20 547,-20 Z M 553,175 C 616,175 669,192 712,228 755,263 788,312 811,373 834,435 846,503 846,578 846,659 826,720 787,763 749,806 695,828 627,828 565,828 513,810 469,775 425,739 392,691 369,630 345,570 334,501 334,424 334,344 353,282 392,239 431,196 485,175 553,175 Z"
   id="glyph109" />
   <glyph
   unicode="n"
   horiz-adv-x="1059"
   d="M 180,-14 C 141,-14 112,-1 93,26 75,53 69,89 76,136 L 195,891 C 201,934 217,965 243,987 268,1008 301,1018 342,1018 380,1018 408,1007 426,983 444,960 449,925 442,879 L 422,748 414,799 C 448,871 497,926 560,965 624,1003 698,1022 784,1022 858,1022 920,1007 970,977 1020,947 1055,901 1076,839 1097,777 1100,697 1085,600 L 1010,113 C 1004,71 989,39 964,18 938,-3 905,-14 862,-14 823,-14 793,-1 774,26 755,53 749,89 756,135 L 829,596 C 842,671 836,727 812,765 788,803 745,821 682,821 601,821 537,796 488,746 440,695 409,626 395,539 L 328,113 C 315,28 266,-14 180,-14 Z"
   id="glyph111" />
   <glyph
   unicode="l"
   horiz-adv-x="531"
   d="M 403,-21 C 290,-21 208,12 158,76 107,141 91,236 111,360 L 266,1333 C 273,1375 289,1407 313,1428 338,1449 371,1460 414,1460 453,1460 482,1447 501,1421 519,1395 525,1358 518,1310 L 367,362 C 357,302 362,258 382,230 402,202 434,188 479,188 494,188 507,189 516,191 526,193 535,194 543,194 556,194 567,189 575,180 584,170 588,152 588,125 588,85 580,55 563,33 547,12 527,-2 504,-9 492,-13 476,-16 457,-18 438,-20 420,-21 403,-21 Z"
   id="glyph113" />
   <glyph
   unicode="e"
   horiz-adv-x="1006"
   d="M 573,-20 C 472,-20 385,-1 310,36 236,74 178,127 137,195 96,263 76,343 76,435 76,546 99,646 146,734 194,822 259,892 342,944 425,996 521,1022 629,1022 712,1022 782,1008 838,979 894,950 938,912 971,864 1004,815 1025,760 1036,699 1047,637 1049,575 1042,511 1040,482 1032,463 1020,455 1008,447 991,443 969,443 L 281,443 301,590 875,590 840,560 C 848,614 846,663 834,706 821,749 798,783 765,809 731,835 685,848 627,848 567,848 516,834 475,807 434,780 402,745 379,702 356,659 340,613 332,563 L 322,500 C 305,400 322,321 371,263 420,204 495,175 596,175 637,175 679,179 723,188 767,197 806,211 842,232 868,247 891,253 910,251 930,249 946,242 957,229 969,216 976,200 979,182 982,163 979,144 970,124 961,105 946,87 924,72 876,41 819,18 754,3 688,-12 628,-20 573,-20 Z"
   id="glyph115" />
   <glyph
   unicode="d"
   horiz-adv-x="1192"
   d="M 451,-21 C 375,-21 310,-3 253,33 196,68 152,118 121,183 89,248 74,324 74,411 74,526 94,629 134,722 174,814 232,887 308,941 384,995 474,1022 578,1022 654,1022 722,1003 780,966 839,929 880,875 903,802 L 889,804 973,1339 C 980,1381 995,1412 1020,1431 1044,1450 1078,1460 1120,1460 1160,1460 1189,1448 1207,1423 1226,1399 1232,1362 1225,1315 L 1034,115 C 1027,72 1012,40 987,17 963,-5 929,-16 887,-16 847,-16 819,-2 802,26 785,53 780,91 788,137 L 807,250 809,188 C 772,124 723,73 662,36 600,-2 530,-21 451,-21 Z M 551,174 C 614,174 667,192 710,228 753,264 786,313 809,374 832,434 844,502 844,577 844,658 824,720 785,763 747,806 693,827 625,827 563,827 511,809 467,774 423,738 390,690 367,629 343,569 332,500 332,424 332,343 351,281 390,238 429,196 483,174 551,174 Z"
   id="glyph117" />
   <glyph
   unicode="b"
   horiz-adv-x="1112"
   d="M 651,-21 C 575,-21 507,-2 447,35 388,72 347,126 324,199 L 342,250 322,113 C 316,70 302,38 280,16 257,-6 225,-16 182,-16 143,-16 113,-3 93,23 73,50 67,87 74,133 L 264,1331 C 271,1373 287,1405 311,1427 336,1449 369,1460 412,1460 451,1460 481,1447 500,1421 519,1395 525,1358 518,1310 L 438,813 418,813 C 455,878 504,929 565,966 627,1003 697,1022 776,1022 853,1022 919,1004 976,969 1033,935 1077,885 1108,820 1139,755 1155,678 1155,590 1155,476 1135,374 1095,281 1054,189 997,116 922,61 847,7 756,-21 651,-21 Z M 604,174 C 667,174 720,192 763,227 806,263 839,311 862,373 885,434 897,502 897,577 897,658 878,720 839,763 800,806 746,827 678,827 616,827 564,809 520,774 477,738 443,690 420,629 397,569 385,500 385,424 385,343 404,281 443,238 482,196 536,174 604,174 Z"
   id="glyph119" />
   <glyph
   unicode="a"
   horiz-adv-x="980"
   d="M 395,-20 C 334,-20 278,-6 227,22 177,50 136,87 105,134 75,180 59,232 59,289 59,360 79,418 119,462 158,507 220,540 303,562 386,584 493,594 623,594 L 786,594 764,447 635,447 C 554,447 490,443 442,435 395,427 360,412 340,392 319,371 309,343 309,306 309,258 325,221 357,195 389,169 429,156 475,156 519,156 558,165 594,184 629,202 659,229 684,264 709,298 724,340 731,388 L 770,631 C 781,696 771,745 740,779 710,813 656,830 580,830 535,830 491,826 449,817 406,808 363,793 317,773 292,762 268,758 248,762 227,767 211,776 198,790 185,804 177,821 176,841 175,861 181,881 194,900 207,919 228,935 258,949 315,975 375,994 437,1005 499,1017 558,1023 612,1023 720,1023 805,1003 866,963 928,924 969,870 991,801 1013,733 1017,655 1004,568 L 932,111 C 926,69 912,37 888,16 864,-5 832,-16 793,-16 756,-16 728,-4 710,20 691,44 685,79 692,125 L 713,254 727,214 C 708,160 681,116 646,81 611,47 572,21 529,5 486,-12 442,-20 395,-20 Z"
   id="glyph121" />
   <glyph
   unicode="I"
   horiz-adv-x="504"
   d="M 213,-17 C 168,-16 136,-3 117,24 98,52 92,90 100,139 L 289,1329 C 296,1373 311,1405 336,1427 360,1449 395,1460 438,1460 482,1460 513,1447 531,1420 550,1393 555,1355 547,1304 L 358,117 C 352,73 337,40 313,17 290,-5 257,-16 213,-17 Z"
   id="glyph123" />
   <glyph
   unicode=","
   horiz-adv-x="319"
   d="M 182,-225 C 162,-244 141,-253 121,-254 100,-253 84,-247 71,-235 58,-223 51,-207 51,-188 51,-169 61,-150 82,-131 117,-97 143,-65 159,-37 174,-8 185,24 190,60 L 207,-10 C 159,-10 121,4 91,32 62,60 47,97 47,144 47,187 61,223 88,251 115,279 152,293 199,293 246,293 283,278 307,247 332,216 344,177 344,129 344,84 338,41 327,0 315,-40 297,-79 273,-116 250,-153 219,-189 182,-225 Z"
   id="glyph125" />
   <glyph
   unicode=" "
   horiz-adv-x="556"
   id="glyph127" />
  </font>
</defs>
</svg>
